• Home
  • Google Plus
  • RSS-Feed

MovieMumble | Latest Film Reviews

MovieMumble reviews the latest films throwing a unique flavor into cinema.

Welcome to MovieMumble

June 17, 2012 at 10:14 pm | Reviews | aaunel

MovieMumble is under new management. We’ll now be providing the latest film reviews, previews, trailers, and opinions. Stick around to discover our true world of entertainment: what’s good, and what’s not so good!

8 comments

Intruders 2011 DVDRip

June 6, 2012 at 1:12 pm | Downloads | aaunel


==============================

Code:
Intruders 2011 DVDRip XviD AC3-NYDIC
Resolution: 720x304 pixels l Language: English l Filesize: 1.37GB
AudiO: ac3 l 448 kbps l 6 channnels
Genre: Horror l Thriller

Quote:
Storyline:Two children living in different countries are visited nightly by a faceless being who wants to

take possession of them.

IMDB:

Code:
http://www.imdb.com/title/tt1634121/
This image has been resized. Click this bar to view the full image. The original image is sized 720×304.

This image has been resized. Click this bar to view the full image. The original image is sized 720×304.

EXTABIT:

Code:
http://extabit.com/file/28yahlh01jrxn/Intruders 2011 DVDRip XviD AC3_CW.part1.rar
http://extabit.com/file/28yahlh01jry3/Intruders 2011 DVDRip XviD AC3_CW.part2.rar
http://extabit.com/file/28yahlh01js23/Intruders 2011 DVDRip XviD AC3_CW.part3.rar
http://extabit.com/file/28yahlh01js2j/Intruders 2011 DVDRip XviD AC3_CW.part4.rar

===================
One comment

Tyler Perrys Good Deeds [2012] [SCR]

June 1, 2012 at 2:41 am | Downloads | aaunel

Tyler Perrys Good Deeds 2012 SCR


===========================
Tyler Perrys Good Deeds 2012 SCR x264 – HOPEPlot:
Businessman Wesley Deeds is jolted out of his scripted life when he meets Lindsey, a single mother who works on the cleaning crew in his office building.

IMDB:

Code:
http://www.imdb.com/title/tt1885265/

Information:
Format : Matroska
Format version : Version 2
File size : 673 MiB
Duration : 1h 50mn
Overall bit rate : 855 Kbps
Encoded date : UTC 2012-03-05 14:21:28
Writing application : mkvmerge v5.2.1 (‘A Far Off Place’) built on Jan 2 2012 23:21:10
Writing library : libebml v1.2.3 + libmatroska v1.3.0

Video
ID : 1
Format : AVC
Format/Info : Advanced Video Codec
Format profile : High@L5.1
Format settings, CABAC : Yes
Format settings, ReFrames : 6 frames
Muxing mode : Header stripping
Codec ID : V_MPEG4/ISO/AVC
Duration : 1h 50mn
Bit rate : 681 Kbps
Width : 720 pixels
Height : 304 pixels
Display aspect ratio : 2.35:1
Frame rate : 29.970 fps
Color space : YUV
Chroma subsampling : 4:2:0
Bit depth : 8 bits
Scan type : Progressive
Bits/(Pixel*Frame) : 0.104
Stream size : 559 MiB (83%)
Writing library : x264 core 120 r2164 da19765

Audio
ID : 2
Format : MPEG Audio
Format version : Version 1
Format profile : Layer 3
Mode : Joint stereo
Mode extension : MS Stereo
Muxing mode : Header stripping
Codec ID : A_MPEG/L3
Codec ID/Hint : MP3
Duration : 1h 50mn
Bit rate mode : Constant
Bit rate : 128 Kbps
Channel(s) : 2 channels
Sampling rate : 48.0 KHz
Compression mode : Lossy
Stream size : 101 MiB (15%)

Screene:

This image has been resized. Click this bar to view the full image. The original image is sized 720×304.

This image has been resized. Click this bar to view the full image. The original image is sized 720×304.

This image has been resized. Click this bar to view the full image. The original image is sized 720×304.

Notes:
Removed 10mins of repeated opening at the very end
… also added my own touch to video, audio untouched

Source:
SCR XViD-KiNGDOM … Thanks

Enjoy!

Code:
http://rapidshare.com/files/405500402/Tyler_Perrys_Good_Deeds_2012_SCR_x264_-_HOPE.part2.rar

http://rapidshare.com/files/469625580/Tyler_Perrys_Good_Deeds_2012_SCR_x264_-_HOPE.part1.rar
0 comments

The Pact [2012] [HDRip]

June 1, 2012 at 2:40 am | Downloads | aaunel

The Pact 2012 HDRip


==================================

Code:
The Pact (2012) HDRip x264 350MB - ABU
Resolution: 720x384 pixels l Language: Englsih l Filesize: 354mb
Audio: aac l 128 kbps l 2 channels
Genre: Horror l Mystery l Thriller

Actors: Caity Lotz, Casper Van Dien, Agnes Bruckner

Quote:
Storyline:

As a woman struggles to come to grips with her past in the wake of her mother’s death, an unsettling presence emerges

in her childhood home.

IMDB:

Code:
http://www.imdb.com/title/tt2040560/

EXTABIT:

Code:
http://extabit.com/file/27axvf1kxnv8j/The Pact 2012 HDRip x264 350MB_CW.part1.rar
http://extabit.com/file/27axvf1kxnv7n/The Pact 2012 HDRip x264 350MB_CW.part2.rar
http://extabit.com/file/27axvf1kxnv4j/The Pact 2012 HDRip x264 350MB_CW.part3.rar


---

The Pact 2012 HDRiP
 

 ===============================
 IMDB LINK'S
Code:
http://www.imdb.com/title/tt2040560/
RELEASE INFO:
Quote:
MEDIAINFO:
General
Complete name : The.Pact.2012.HDRiP.AC3-5.1.XviD-AXED.avi
Format : AVI
Format/Info : Audio Video Interleave
File size : 1.33 GiB
Duration : 1h 29mn
Overall bit rate : 2 137 Kbps

Video
ID : 0
Format : MPEG-4 Visual
Format profile : Advanced Simple@L5
Format settings, BVOP : 2
Format settings, QPel : No
Format settings, GMC : No warppoints
Format settings, Matrix : Default (H.263)
Muxing mode : Packed bitstream
Codec ID : XVID
Codec ID/Hint : XviD
Duration : 1h 29mn
Bit rate : 1 745 Kbps
Width : 720 pixels
Height : 384 pixels
Display aspect ratio : 1.875
Frame rate : 23.976 fps
Color space : YUV
Chroma subsampling : 4:2:0
Bit depth : 8 bits
Scan type : Progressive
Compression mode : Lossy
Bits/(Pixel*Frame) : 0.263
Stream size : 1.09 GiB (82%)
Writing library : XviD 1.1.2 (UTC 2006-11-01)

Audio
ID : 1
Format : AC-3
Format/Info : Audio Coding 3
Mode extension : CM (complete main)
Codec ID : 2000
Duration : 1h 29mn
Bit rate mode : Constant
Bit rate : 384 Kbps
Channel(s) : 6 channels
Channel positions : Front: L C R, Side: L R, LFE
Sampling rate : 48.0 KHz
Bit depth : 16 bits
Compression mode : Lossy
Stream size : 245 MiB (18%)
Alignment : Aligned on interleaves
Interleave, duration : 64 ms (1.53 video frames)
Interleave, preload duration : 192 ms
Title : thepact

SOURCE:
720p wmv Digital VOD Rental

SCREEN'S:
This image has been resized. Click this bar to view the full image. The original image is sized 1024×1151.

 
  Single Links | Single Extraction | My Upload
 
 DOWNLOAD LINK'S :
Code:
HELLSHARE.COM

http://download.hellshare.com/the-pact-2012-hdrip-ac3-5-1-xvid-axed-part1-rar/7523321/


http://download.hellshare.com/the-pact-2012-hdrip-ac3-5-1-xvid-axed-part2-rar/7523350/

= OR / INTERCHANGEABLE =
TURBOBIT.NET

http://turbobit.net/6mcgtltd48yn/The.Pact.2012.HDRiP.AC3-5.1.XviD-AXED.part1.rar.html


http://turbobit.net/97rt5t8h32cb/The.Pact.2012.HDRiP.AC3-5.1.XviD-AXED.part2.rar.html

= OR / INTERCHANGEABLE =
NETLOAD.IN:

http://www.netload.in/dateizeLuJRMIYv/The.Pact.2012.HDRiP.AC3-5.1.XviD-AXED.part1.rar.htm


http://www.netload.in/datei0giVZS9zBP/The.Pact.2012.HDRiP.AC3-5.1.XviD-AXED.part2.rar.htm

= OR / INTERCHANGEABLE =
FILEVELOCITY.COM:

http://filevelocity.com/xnjfycge9vwp/The.Pact.2012.HDRiP.AC3-5.1.XviD-AXED.part1.rar


http://filevelocity.com/4az64u3ikntm/The.Pact.2012.HDRiP.AC3-5.1.XviD-AXED.part2.rar

= OR / INTERCHANGEABLE =
BITSHARE.COM:

http://bitshare.com/files/dkcj63du/The.Pact.2012.HDRiP.AC3-5.1.XviD-AXED.part1.rar.html


http://bitshare.com/files/6pmq8dua/The.Pact.2012.HDRiP.AC3-5.1.XviD-AXED.part2.rar.html

= OR / INTERCHANGEABLE =
FILEFACTORY.COM:

http://www.filefactory.com/file/2rvm20hbj9id/n/The_Pact_2012_HDRiP_AC3-5_1_XviD-AXED_part1_rar


http://www.filefactory.com/file/ukfixxt4jwx/n/The_Pact_2012_HDRiP_AC3-5_1_XviD-AXED_part2_rar

= OR / INTERCHANGEABLE =
RAPIDSHARE.COM:

https://rapidshare.com/files/3778763942/The.Pact.2012.HDRiP.AC3-5.1.XviD-AXED.part1.rar


https://rapidshare.com/files/712865619/The.Pact.2012.HDRiP.AC3-5.1.XviD-AXED.part2.rar
0 comments

Jesus Henry Christ [2012] [BRRiP]

June 1, 2012 at 2:40 am | Downloads | aaunel

Jesus Henry Christ 2012 BRRiP

===========================

Code:
http://www.imdb.com/title/tt1393742/
Quote:
Rating: 6.0
Director: Dennis Lee
Cast: Toni Collette / Michael Sheen / Jason Spevack / Samantha Weinstein / Frank Moore / Aaron Abrams / Melyssa Ade / Dewshane Williams / Paul Braunstein / Hannah Brigden / Luca Castricone / Mark Caven / Roger Clown / Devan Cohen / Drew Davis
Genre: Comedy
Plot: At the age of ten, Henry James Hermin, a boy who was conceived in a petri-dish and raised by his feminist mother, follows a string of Post-It notes in hopes of finding his biological father.
Code:
http://www.imdb.com/video/imdb/vi3750404121/player
Code:
File: Jesus.Henry.Christ.2012.BRRiP.XViD.AC3-MAJESTiC.avi
Size: 1570545664 bytes (1.46 GiB), duration: 01:34:46, avg.bitrate: 2210 kb/s
Audio: ac3, 48000 Hz, 5:1, 448 kb/s
Video: mpeg4, yuv420p, 720x304, 23.98 fps(r)



Code:
https://rapidshare.com/files/1268223900/Jesus.Henry.Christ.2012.BRRiP.XViD.AC3.MAJESTiC_BY_IPH0NE_CW.part1.rar

https://rapidshare.com/files/1218505059/Jesus.Henry.Christ.2012.BRRiP.XViD.AC3.MAJESTiC_BY_IPH0NE_CW.part2.rar


https://rapidshare.com/files/1376911946/Jesus.Henry.Christ.2012.BRRiP.XViD.AC3.MAJESTiC_BY_IPH0NE_CW.part3.rar


https://rapidshare.com/files/924115745/Jesus.Henry.Christ.2012.BRRiP.XViD.AC3.MAJESTiC_BY_IPH0NE_CW.part4.rar
Code:
http://bitshare.com/files/xqufoq5l/Jesus.Henry.Christ.2012.BRRiP.XViD.AC3.MAJESTiC_BY-IPH0NE-CW.part1.rar.html

http://bitshare.com/files/oyld43r2/Jesus.Henry.Christ.2012.BRRiP.XViD.AC3.MAJESTiC_BY-IPH0NE-CW.part2.rar.html


http://bitshare.com/files/l1qpdvw5/Jesus.Henry.Christ.2012.BRRiP.XViD.AC3.MAJESTiC_BY-IPH0NE-CW.part3.rar.html


http://bitshare.com/files/abypx641/Jesus.Henry.Christ.2012.BRRiP.XViD.AC3.MAJESTiC_BY-IPH0NE-CW.part4.rar.html
0 comments

© MovieMumble | Latest Film Reviews

|

Interpreted by DesignFalcon and mnfw. Powered by WordPress.

Top